Loading...

LimeTorrent

Login   |   Register   |   Home
Browse Torrents
| Search Cloud | | | FAQ  
» » Death Wish (2018) x 1600 (2160p) HDR 5 1 x265 10bit Phun Psyz

Download Death Wish (2018) x 1600 (2160p) HDR 5 1 x265 10bit Phun Psyz limetorrent


Download torrent: Download Magnet Death Wish (2018) x 1600 (2160p) HDR 5 1 x265 10bit Phun Psyz
Info hash A05F1C11729A5472FAD941A78E82320C7FCA4711
Torrent ID13813658
Comments: Sort Read Comments
Category: Movies
Health:
 Seeders: 11 |  Leechers: 3 |  Completed: 151
Torrent language: English English
Total Size: 3.3 GB
Uploader: PhunPsyz Trusted Uploader Site Friend Superman Sun
Torrent added: 13-06-2018, 20:15:04
Views: 58


Extratorrent Download Torrent Death Wish (2018) x 1600 (2160p) HDR …
https://ibit.to/torrent/Death-Wish-2018-x-1600-2160p-HDR-5-1-x265...
Download Death Wish (2018) x 1600 …
https://www.torrentforest.org/death-wish-2018-x-1600-2160p-hdr-5-1...
Download UHD Torrents | 1337x
https://1337x.st/sub/76/0
Death Wish 2018 Torrents - TorrentFunk
https://www.torrentfunk.com/all/torrents/death-wish-2018.html
레드 스패로 Red Sparrow (2018) x 1600 …
https://torrent.tzoa.me/bbs/board.php?bo_table=foreign_movie&wr_id=...
스내치드 Snatched (2017) (2160p …
https://tzoa.me/bbs/board.php?bo_table=hd_movie&wr_id=8195
Download PhunPsyz's Torrents | 1337x
https://1337x.to/PhunPsyz-torrents/1
2160p -Btbit磁力搜索引擎
hk.btbit.org/list/2160p/5-1-2.html
다크타워: 희망의 탑 The Dark Tower …
https://tzoa.me/bbs/board.php?bo_table=hd_movie&wr_id=7754
ƊЄMƠƝƠƖƊ → Torrent list - Demonoid
https://www.demonoid.pw/files/?category=1



www.imdb.com/title/tt1137450/

Dr. Paul Kersey is an experienced trauma surgeon, a man who has spent his life saving lives. After an attack on his family, Paul embarks on his own mission for justice.

Source: GASMASK (HDR) (18.1 GiB)



Format : Matroska
Format version : Version 4 / Version 2
File size : 3.27 GiB
Duration : 1 h 46 min
Overall bit rate : 4 389 kb/s

Video
ID : 1
Format : HEVC
Format/Info : High Efficiency Video Coding
Format profile : Main [email protected]@High
Codec ID : V_MPEGH/ISO/HEVC
Duration : 1 h 46 min
Bit rate : 3 982 kb/s
Width : 3 840 pixels
Height : 1 600 pixels
Display aspect ratio : 2.40:1
Frame rate mode : Constant
Frame rate : 23.976 (24000/1001) FPS
Color space : YUV
Chroma subsampling : 4:2:0
Bit depth : 10 bits
Bits/(Pixel*Frame) : 0.027
Stream size : 2.97 GiB (91%)
Writing library : x265 2.6:[Windows][GCC 7.1.0][64 bit] 10bit

Audio
ID : 2
Format : AC-3
Format/Info : Audio Coding 3
Format settings, Endianness : Big
Codec ID : A_AC3
Duration : 1 h 46 min
Bit rate mode : Constant
Bit rate : 320 kb/s
Channel(s) : 6 channels
Channel positions : Front: L C R, Side: L R, LFE
Sampling rate : 48.0 kHz
Frame rate : 31.250 FPS (1536 SPF)
Bit depth : 16 bits
Compression mode : Lossy
Stream size : 244 MiB (7%)
Title : Surround
Language : English

Text
Language : English
Language : English
Language : French
Language : French
Default : No
Forced : No





 

Related Torrents
Browse Movies Torrents Related Torrents added recently in our database RSS  
Added  Size  Sort S  Sort L  Sort Health
Download Magnet English  Sigma_-_Anywhere_(Extended_Mix)_[2018][EDM_RG] in Music, by pradyutvam 27 seconds 14.4 MB 88139 34859
Download Magnet English  Faiths_Song_2018_HDRip_XviD_AC3-EVO[TGx] in Movies, by mazemaze16 26 seconds 1.4 GB 92586 98369
Download Magnet English  The_Wrong_Crush_2017_720p_WEB-HD_650_MB_-_iExTV in Movies, by amarK 10 minutes 652.2 MB 97494 14773
Download Magnet English  FIFA_World_Cup_2018_Group_G_England_vs_Panama_720p_HDTV_x264___ in TV, by mazemaze16 10 minutes 2.7 GB 31448 32299
Download Magnet Telugu  Bigg_Boss_(2018)_720p_Telugu_-_Season_2_-_EP_13_(UnSeen_Vers___ in Movies, by rock3 20 minutes 374.6 MB 3302 40650
Download Magnet English  Vive_le_Roi_2 in Games, by IGGGAMESCOM 30 minutes 40.7 MB 97339 94315
Download Magnet English  Warriors:_Rise_to_Glory!_v0_43 in Games, by IGGGAMESCOM 30 minutes 689.7 MB 11876 40520
Download Magnet English  When_They_Arrived_v0_71 in Games, by IGGGAMESCOM 30 minutes 1.2 GB 38034 81145
Download Magnet English  Lucy(2014)1080p_Blu-Ray_Rip[DaScubaDude] in Movies, by dascubadude 30 minutes 2.0 GB 7622 52103
Download Magnet English  Wizard_Street in Games, by IGGGAMESCOM 30 minutes 539.3 MB 77033 46544




Recent Searches

Home - Browse Torrents - Upload Torrent - Recent Torrents - Login - Register - FAQ
BitCoin:coming soon
Can't load LimeTorrents
2006-2018 Limetorrents