Loading...

LimeTorrent

Login   |   Register   |   Home
Browse Torrents
| Search Cloud | | | FAQ  
» » Central Intelligence (2016) BluRay 720p Dual Audio [Hindi - Eng] DD5 1 x264 AAC Esub -=!Katyayan!=-

Download Central Intelligence (2016) BluRay 720p Dual Audio [Hindi - Eng] DD5 1 x264 AAC Esub -=!Katyayan!=- limetorrent


Download torrent: Download Magnet Central Intelligence (2016) BluRay 720p Dual Audio [Hindi - Eng] DD5 1 x264 AAC Esub -=!Katyayan!=-
Info hash C37D922D34DDEBE83887EB4469680CD28A2CD1D5
Torrent ID13813630
Comments: Sort Read Comments
Category: Movies
Health:
 Seeders: 2 |  Leechers: 1 |  Completed: 10
Torrent language: Hindi Hindi
Total Size: 1,018.6 MB
Uploader: Katyayan Trusted Uploader Site Friend Superman Sun
Torrent added: 13-06-2018, 18:40:04
Views: 67


Extratorrent Download Torrent Central Intelligence (2016) ORG Dual …
https://movieznmore.info/central-intelligence-2016-org-dual-audio...
Dual Audio Torrents - TorrentFunk
https://www.torrentdownload.men/all/torrents/dual-audio.html
Latest bluray Torrent | Movie Torrents
https://www.torrentforest.org/tag/bluray
Search for 'hindi english' - page 3 - …
https://extratorrent2.net/search/?search=hindi+english&page=3
Dual Hindi Torrents - TorrentFunk
https://www.torrentfunk.com/all/torrents/dual-hindi.html
Dual Audio Hindi Torrents - TorrentFunk
https://torrentfunk.unblocked.lat/all/torrents/dual-audio-hindi.html
오블리비언 Oblivion 2013 Complete …
https://tzoa.me/bbs/board.php?bo_table=foreign_movie&wr_id=297756...
Hindi English Torrents - TorLock
https://www.torlock2.com/all/torrents/hindi-english.html
Search for 'hindi' - page 13 - …
https://extratorrent2.net/search/?search=hindi&page=13




Central Intelligence (2016) BluRay 720p Dual Audio [Hindi - Eng] DD5.1 x264 AAC Esub -=!Katyayan!=-








Format : Matroska
Format version : Version 4 / Version 2
File size : 1 018 MiB
Duration : 1 h 47 min
Overall bit rate : 1 323 kb/s
Movie name : Central Intelligence (2016) BluRay 720p Dual Audio [Hindi - Eng] DD5.1 x264 AAC Esub -=!Katyayan!=-
Encoded date : UTC 2018-06-13 17:04:30
Writing application : mkvmerge v19.0.0 ('Brave Captain') 32-bit
Writing library : libebml v1.3.5 + libmatroska v1.4.8
Cover : Yes
Attachments : Central Intelligence (2016) Cover.

Video
ID : 1
Format : AVC
Format/Info : Advanced Video Codec
Format profile : [email protected]
Format settings : CABAC / 12 Ref Frames
Format settings, CABAC : Yes
Format settings, RefFrames : 12 frames
Codec ID : V_MPEG4/ISO/AVC
Duration : 1 h 47 min
Bit rate : 1 000 kb/s
Width : 1 280 pixels
Height : 536 pixels
Display aspect ratio : 2.40:1
Original display aspect ratio : 2.40:1
Frame rate mode : Constant
Frame rate : 23.976 (24000/1001) FPS
Color space : YUV
Chroma subsampling : 4:2:0
Bit depth : 8 bits
Scan type : Progressive
Bits/(Pixel*Frame) : 0.061
Stream size : 770 MiB (76%)
Title : Central Intelligence (2016) BluRay 720p Dual Audio [Hindi - Eng] DD5.1 x264 AAC Esub -=!Katyayan!=-
Writing library : x264 core 146 r2538 121396c
Encoding settings : cabac=1 / ref=12 / deblock=1:-1:-1 / analyse=0x3:0x133 / me=umh / subme=10 / psy=1 / psy_rd=1.00:0.15 / mixed_ref=1 / me_range=24 / chroma_me=1 / trellis=2 / 8x8dct=1 / cqm=0 / deadzone=21,11 / fast_pskip=1 / chroma_qp_offset=-3 / threads=12 / lookahead_threads=2 / sliced_threads=0 / nr=1000 / decimate=1 / interlaced=0 / bluray_compat=0 / constrained_intra=0 / bframes=8 / b_pyramid=2 / b_adapt=2 / b_bias=0 / direct=3 / weightb=1 / open_gop=0 / weightp=2 / keyint=240 / keyint_min=23 / scenecut=40 / intra_refresh=0 / rc_lookahead=60 / rc=2pass / mbtree=1 / bitrate=1000 / ratetol=1.0 / qcomp=0.60 / qpmin=0 / qpmax=69 / qpstep=4 / cplxblur=20.0 / qblur=0.5 / vbv_maxrate=62500 / vbv_bufsize=78125 / nal_hrd=none / filler=0 / ip_ratio=1.40 / aq=1:1.00
Language : English
Default : Yes
Forced : No
Color range : Limited
Color primaries : Generic film
Transfer characteristics : BT.709
Matrix coefficients : BT.709

Audio #1
ID : 2
Format : AAC
Format/Info : Advanced Audio Codec
Format profile : LC
Codec ID : A_AAC-2
Duration : 1 h 47 min
Bit rate : 192 kb/s
Channel(s) : 6 channels
Channel positions : Front: L C R, Side: L R, LFE
Sampling rate : 48.0 kHz
Frame rate : 46.875 FPS (1024 SPF)
Compression mode : Lossy
Stream size : 147 MiB (14%)
Title : -=!Katyayan!=-
Language : Hindi
Default : Yes
Forced : Yes

Audio #2
ID : 3
Format : AAC
Format/Info : Advanced Audio Codec
Format profile : LC
Codec ID : A_AAC-2
Duration : 1 h 47 min
Bit rate : 128 kb/s
Channel(s) : 6 channels
Channel positions : Front: L C R, Side: L R, LFE
Sampling rate : 48.0 kHz
Frame rate : 46.875 FPS (1024 SPF)
Compression mode : Lossy
Stream size : 98.5 MiB (10%)
Title : -=!Katyayan!=-
Language : English
Default : No
Forced : No

Text
ID : 4
Format : UTF-8
Codec ID : S_TEXT/UTF8
Codec ID/Info : UTF-8 Plain Text
Duration : 1 h 47 min
Bit rate : 93 b/s
Count of elements : 2374
Stream size : 73.5 KiB (0%)
Title : -=!Katyayan!=-
Language : English
Default : Yes
Forced : Yes

Menu
00:00:00.000 : en:00:00:00.000
00:09:12.051 : en:00:09:12.051
00:20:11.751 : en:00:20:11.751
00:30:31.078 : en:00:30:31.078
00:43:21.764 : en:00:43:21.764
00:52:42.492 : en:00:52:42.492
00:58:09.860 : en:00:58:09.860
01:10:12.457 : en:01:10:12.457
01:18:36.752 : en:01:18:36.752
01:28:56.287 : en:01:28:56.287
01:39:32.256 : en:01:39:32.256








 

Related Torrents
Browse Movies Torrents Related Torrents added recently in our database RSS  
Added  Size  Sort S  Sort L  Sort Health
Download Magnet English  Sigma_-_Anywhere_(Extended_Mix)_[2018][EDM_RG] in Music, by pradyutvam 1 minute 14.4 MB 33574 92405
Download Magnet English  Faiths_Song_2018_HDRip_XviD_AC3-EVO[TGx] in Movies, by mazemaze16 1 minute 1.4 GB 18711 98106
Download Magnet English  The_Wrong_Crush_2017_720p_WEB-HD_650_MB_-_iExTV in Movies, by amarK 11 minutes 652.2 MB 66950 38282
Download Magnet English  FIFA_World_Cup_2018_Group_G_England_vs_Panama_720p_HDTV_x264___ in TV, by mazemaze16 11 minutes 2.7 GB 54706 30804
Download Magnet Telugu  Bigg_Boss_(2018)_720p_Telugu_-_Season_2_-_EP_13_(UnSeen_Vers___ in Movies, by rock3 21 minutes 374.6 MB 96519 15953
Download Magnet English  Vive_le_Roi_2 in Games, by IGGGAMESCOM 31 minutes 40.7 MB 54429 24911
Download Magnet English  Warriors:_Rise_to_Glory!_v0_43 in Games, by IGGGAMESCOM 31 minutes 689.7 MB 48125 39573
Download Magnet English  When_They_Arrived_v0_71 in Games, by IGGGAMESCOM 31 minutes 1.2 GB 60339 93774
Download Magnet English  Lucy(2014)1080p_Blu-Ray_Rip[DaScubaDude] in Movies, by dascubadude 31 minutes 2.0 GB 61500 13939
Download Magnet English  Wizard_Street in Games, by IGGGAMESCOM 31 minutes 539.3 MB 50277 47910




Recent Searches

Home - Browse Torrents - Upload Torrent - Recent Torrents - Login - Register - FAQ
BitCoin:coming soon
Can't load LimeTorrents
2006-2018 Limetorrents