Loading...

LimeTorrent

Login   |   Register   |   Home
Browse Torrents
| Search Cloud | | | FAQ  
» » Tomb Raider 2018 ITA-ENG Bluray 1080p CB01HD mkv

Download Tomb Raider 2018 ITA-ENG Bluray 1080p CB01HD mkv limetorrent


Download torrent: Download Magnet Tomb Raider 2018 ITA-ENG Bluray 1080p CB01HD mkv
Info hash 96DC0B7F883497C1DB5D64A7CD78A4051DCD8C7B
Torrent ID13813610
Comments: Sort Read Comments
Category: Movies
Health:
 Seeders: 191 |  Leechers: 58 |  Completed: 5140
Torrent language: English English
Total Size: 11.0 GB
Uploader: ppb1 Trusted Uploader Site Friend Superman Sun
Torrent added: 13-06-2018, 17:40:03
Views: 121


Extratorrent Download Torrent #NEW DOWNLOAD - spacejam.ovh
spacejam.ovh
#GlobaL-CreW
www.globalirc.altervista.org/lista/index.php

GIUSEPPEiCV & LITTLELINX HANNO IL PIACERE DI PRESENTARE BLURAY 1080p ITA - ENG AC3 DTS .: Dati :. DATA USCITA: 15 marzo 2018 GENERE: Azione, Avventura, Fantasy ANNO: 2018 REGIA: Roar Uthaug ATTORI: Alicia Vikander, Dominic West, Walton Goggins, Daniel Wu, Kristin Scott Thomas, Hannah John-Kamen, Nick Frost, Adrian Collins, Antonio Aakeel, Emily Carey, Maisy De Freitas, Michael Obiora PAESE: USA DURATA: 122 Min DISTRIBUZIONE: Warner Bros. Trama: Lara Croft, the fiercely independent daughter of a missing adventurer, must push herself beyond her limits when she discovers the island where her father disappeared. Origin story della "profanatrice di tombe", Tomb Raider riporta sullo schermo l'eroina più amata del mondo arcade, in una veste inedita e ammorbidita. La 21enne Lara Croft (Alicia Vikander), fiera ed indipendente figlia di un eccentrico avventuriero, non ha grilli archeologici per la testa, non filtra gli eventi con intuito e sarcasmo, e tra una lezione e l'altra all'università, non sa ancora cosa fare del proprio futuro. Con le consegne in bicicletta, in giro per le caotiche strade di Londra, a malapena riesce a pagare l'affitto dell'appartamento che condivide con l'amica Sophie (Hannah John-Kamen). I modi incerti ed empatici della giovane Lara, estranei al personaggio più maturo, rimandano a una base di inesperienza e problemi irrisolti. Uno fra tutti: la scomparsa di suo padre, eccentrico archeologo partito in missione alcuni anni prima e mai più ritornato. Nonostante il consiglio di affrontare gli avvenimenti andare avanti dopo sette anni senza di lui, Lara, spinta dalla convinzione che il genitore sia ancora vivo, si imbarcherà in un lungo viaggio per mare, che la porterà sulle coste di un'isola misteriosa al largo del Giappone alla ricerca di una tomba leggendaria, ultima destinazione nota di suo padre prima dela sua misteriosa scomparsa. Scortata dal capitano della nave Lu Ren (Daniel Wu), Lara si addentrerà tra i miti e le leggende che popolano il sinistro villaggio, con outfit già mimetico e capelli legati non ancora intrecciati. Se sopravvivesse a questa pericolosa avventura, potrebbe realmente capire chi sia e conquistare il nome di Tomb Raider. .: Screenshot :. .: Caratteristiche Tecniche :. [Spoiler] Tomb.Raider.2018.ITA-ENG.Bluray.1080p.CB01HD/Tomb.Raider.2018.ITA-ENG.Bluray.1080p.CB01HD.mkv Format : Matroska Format version : Version 4 / Version 2 File size : 11.0 GiB Duration : 1h 57mn Overall bit rate : 13.4 Mbps Movie name : CineBlog01HD Encoded date : UTC 2018-06-13 12:12:26 Writing application : mkvmerge v7.4.0 ('Circles') 32bit built on Dec 12 2014 12:10:09 Writing library : libebml v1.3.0 + libmatroska v1.4.1 _STATISTICS_WRITING_APP : mkvmerge v7.4.0 ('Circles') 32bit built on Dec 12 2014 12:10:09 _STATISTICS_WRITING_DATE_UTC : 2018-06-13 12:12:26 _STATISTICS_TAGS : BPS DURATION NUMBER_OF_FRAMES NUMBER_OF_BYTES DURATION : 01:56:49.336000000 NUMBER_OF_FRAMES : 1152 NUMBER_OF_BYTES : 29475 Video ID : 1 Format : AVC Format/Info : Advanced Video Codec Format profile : [email protected] Format settings, CABAC : Yes Format settings, ReFrames : 5 frames Codec ID : V_MPEG4/ISO/AVC Duration : 1h 57mn Bit rate : 9 114 Kbps Width : 1 920 pixels Height : 800 pixels Display aspect ratio : 2.40:1 Frame rate : 23.976 fps Color space : YUV Chroma subsampling : 4:2:0 Bit depth : 8 bits Scan type : Progressive Bits/(Pixel*Frame) : 0.247 Stream size : 7.28 GiB (66%) Writing library : x264 core 155 r2901 7d0ff22 Encoding settings : cabac=1 / ref=5 / deblock=1:0:0 / analyse=0x3:0x133 / me=umh / subme=7 / psy=1 / psy_rd=1.00:0.00 / mixed_ref=1 / me_range=16 / chroma_me=1 / trellis=1 / 8x8dct=1 / cqm=0 / deadzone=21,11 / fast_pskip=0 / chroma_qp_offset=-2 / threads=24 / lookahead_threads=4 / sliced_threads=0 / nr=0 / decimate=1 / interlaced=0 / bluray_compat=0 / constrained_intra=0 / bframes=3 / b_pyramid=2 / b_adapt=1 / b_bias=0 / direct=1 / weightb=1 / open_gop=0 / weightp=2 / keyint=250 / keyint_min=23 / scenecut=40 / intra_refresh=0 / rc_lookahead=40 / rc=2pass / mbtree=1 / bitrate=9114 / ratetol=1.0 / qcomp=0.60 / qpmin=0 / qpmax=69 / qpstep=4 / cplxblur=20.0 / qblur=0.5 / ip_ratio=1.40 / aq=1:1.00 Language : English Default : Yes Forced : No DURATION : 01:57:50.439000000 NUMBER_OF_FRAMES : 169521 NUMBER_OF_BYTES : 8052614463 _STATISTICS_WRITING_APP : mkvmerge v7.4.0 ('Circles') 32bit built on Dec 12 2014 12:10:09 _STATISTICS_WRITING_DATE_UTC : 2018-06-13 12:12:26 _STATISTICS_TAGS : BPS DURATION NUMBER_OF_FRAMES NUMBER_OF_BYTES Audio #1 ID : 2 Format : AC-3 Format/Info : Audio Coding 3 Mode extension : CM (complete main) Codec ID : A_AC3 Duration : 1h 57mn Bit rate mode : Constant Bit rate : 640 Kbps Channel(s) : 6 channels Channel positions : Front: L C R, Side: L R, LFE Sampling rate : 48.0 KHz Bit depth : 16 bits Compression mode : Lossy Stream size : 539 MiB (5%) Language : Italian Default : Yes Forced : No Audio #2 ID : 3 Format : DTS Format/Info : Digital Theater Systems Codec ID : A_DTS Duration : 1h 57mn Bit rate mode : Constant Bit rate : 1 510 Kbps Channel(s) : 6 channels Channel positions : Front: L C R, Side: L R, LFE Sampling rate : 48.0 KHz Bit depth : 24 bits Compression mode : Lossy Stream size : 1.24 GiB (11%) Title : DTS Language : Italian Default : No Forced : No Audio #3 ID : 4 Format : AC-3 Format/Info : Audio Coding 3 Mode extension : CM (complete main) Codec ID : A_AC3 Duration : 1h 57mn Bit rate mode : Constant Bit rate : 640 Kbps Channel(s) : 6 channels Channel positions : Front: L C R, Side: L R, LFE Sampling rate : 48.0 KHz Bit depth : 16 bits Compression mode : Lossy Stream size : 539 MiB (5%) Language : English Default : No Forced : No Audio #4 ID : 5 Format : DTS Format/Info : Digital Theater Systems Codec ID : A_DTS Duration : 1h 57mn Bit rate mode : Constant Bit rate : 1 510 Kbps Channel(s) : 6 channels Channel positions : Front: L C R, Side: L R, LFE Sampling rate : 48.0 KHz Bit depth : 24 bits Compression mode : Lossy Stream size : 1.24 GiB (11%) Title : DTS Language : English Default : No Forced : No Text #1 ID : 6 Format : UTF-8 Codec ID : S_TEXT/UTF8 Codec ID/Info : UTF-8 Plain Text Title : Forced Language : Italian Default : Yes Forced : No Text #2 ID : 7 Format : UTF-8 Codec ID : S_TEXT/UTF8 Codec ID/Info : UTF-8 Plain Text Language : Italian Default : No Forced : No [/spoiler] [center]RINGRAZIAMENTI RESTATE IN SEED ALTRIMENTI


 

Related Torrents
Browse Movies Torrents Related Torrents added recently in our database RSS  
Added  Size  Sort S  Sort L  Sort Health
Download Magnet English  The_Wrong_Crush_2017_720p_WEB-HD_650_MB_-_iExTV in Movies, by amarK 7 minutes 652.2 MB 4020 43277
Download Magnet English  FIFA_World_Cup_2018_Group_G_England_vs_Panama_720p_HDTV_x264___ in TV, by mazemaze16 7 minutes 2.7 GB 88733 8353
Download Magnet Telugu  Bigg_Boss_(2018)_720p_Telugu_-_Season_2_-_EP_13_(UnSeen_Vers___ in Movies, by rock3 17 minutes 374.6 MB 7663 69128
Download Magnet English  Vive_le_Roi_2 in Games, by IGGGAMESCOM 27 minutes 40.7 MB 2263 55903
Download Magnet English  Warriors:_Rise_to_Glory!_v0_43 in Games, by IGGGAMESCOM 27 minutes 689.7 MB 98584 17278
Download Magnet English  When_They_Arrived_v0_71 in Games, by IGGGAMESCOM 27 minutes 1.2 GB 72500 55643
Download Magnet English  Lucy(2014)1080p_Blu-Ray_Rip[DaScubaDude] in Movies, by dascubadude 27 minutes 2.0 GB 93483 29612
Download Magnet English  Wizard_Street in Games, by IGGGAMESCOM 27 minutes 539.3 MB 94547 84435
Download Magnet English  Wonfourn in Games, by IGGGAMESCOM 27 minutes 2.0 GB 48537 4544
Download Magnet English  12_Monkeys_S04E06_Die_Glocke_1080p_5_1_-_2_0_x264_Phun_Psyz in TV, by PhunPsyz 37 minutes 735.1 MB 25738 82607




Recent Searches

Home - Browse Torrents - Upload Torrent - Recent Torrents - Login - Register - FAQ
BitCoin:coming soon
Can't load LimeTorrents
2006-2018 Limetorrents