LimeTorrent

Login   |   Register   |   Home
Browse Torrents
| Search Cloud | | | FAQ  
» » Oceans 8 2018 720p HD-TS X264 MP3 LLG

Download Oceans 8 2018 720p HD-TS X264 MP3 LLG limetorrent


Download torrent: Download Magnet Oceans 8 2018 720p HD-TS X264 MP3 LLG
Info hash 716158A96938FDBC65623DC80604F29757085282
Torrent ID13813600
Comments: Sort Read Comments
Category: Movies
Health:
 Seeders: 20 |  Leechers: 7 |  Completed: 767
Torrent language: English English
Total Size: 1.2 GB
Uploader: LifeLongg Trusted Uploader Site Friend Superman Sun
Torrent added: 13-06-2018, 17:00:05
Views: 47


Extratorrent Download Torrent Download verified torrents: movies, …
https://x1337x.eu/home
Release24.pl - release filmów, seriali i gier
release24.pl
Browse Torrents - Hon3yHD.to
hon3yhd.to/torrents.php
Filmy - na Release24.pl
release24.pl/filmy
Download Movies Torrents | 1337x
https://1337x.unblocked.lat/cat/Movies/1
Hon3yHD.to :: Bollywood / Hindi / …
hon3yhd.to
Watch32 - Watch Full Free Movies …
https://watch32.as

******************************Thumbnail:********************** ******************************Screenshots:******************** Screenshot 1 Screenshot 2 Screenshot 3 Screenshot 4 Screenshot 5 Screenshot 6 Screenshot 7 Screenshot 8 Screenshot 9 Screenshot 0 ************************************************************** Complete name : Oceans.8.2018.720p.HD-TS.X264.MP3.LLG.mp4 Format : MPEG-4 Format profile : Base Media Codec ID : isom (isom/iso2/avc1/mp41) File size : 1.19 GiB Duration : 1 h 43 min Overall bit rate : 1 637 kb/s Writing application : Lavf57.56.101 Video ID : 1 Format : AVC Format/Info : Advanced Video Codec Format profile : [email protected] Format settings : CABAC / 4 Ref Frames Format settings, CABAC : Yes Format settings, RefFrames : 4 frames Codec ID : avc1 Codec ID/Info : Advanced Video Coding Duration : 1 h 43 min Bit rate : 1 500 kb/s Width : 1 280 pixels Height : 536 pixels Display aspect ratio : 2.40:1 Frame rate mode : Constant Frame rate : 23.976 (23976/1000) FPS Color space : YUV Chroma subsampling : 4:2:0 Bit depth : 8 bits Scan type : Progressive Bits/(Pixel*Frame) : 0.091 Stream size : 1.09 GiB (92%) Audio ID : 2 Format : MPEG Audio Format version : Version 1 Format profile : Layer 3 Format settings : Joint stereo / MS Stereo Codec ID : mp4a-6B Duration : 1 h 43 min Bit rate mode : Constant Bit rate : 128 kb/s Channel(s) : 2 channels Sampling rate : 44.1 kHz Compression mode : Lossy Stream size : 94.9 MiB (8%) Writing library : LAME3.99.5 Default : Yes Alternate group : 1


 

Related Torrents
Browse Movies Torrents Related Torrents added recently in our database RSS  
Added  Size  Sort S  Sort L  Sort Health
Download Magnet Dutch  Departures_2008_SUBBED_1080p_BluRay_x264-CiNEFiLE in Movies, by hotpena 6 minutes 8.8 GB 16085 13454
Download Magnet English  Finding_Your_Feet_(2017)_720p_WEB-DL_x264_900MB_-_MkvHub in Movies, by MkvHub 6 minutes 894.3 MB 38768 79986
Download Magnet English  Ready_Player_One_2018_1080p_WEB-DL_5_1_x265-HETeam in Movies, by bone111 16 minutes 1.8 GB 59792 76870
Download Magnet English  Life_of_the_Party_(2018)_720p_WEB-DL_x264_850MB_-_MkvHub in Movies, by MkvHub 16 minutes 840.5 MB 85269 68220
Download Magnet English  Bunkd_S03E01_XviD-AFG[TGx] in TV, by mazemaze16 16 minutes 416.4 MB 76749 97387
Download Magnet English  Phoning_Home_MULTi7_Update_v20180618-PLAZA in Games, by mercs213 16 minutes 94.6 MB 92553 11492
Download Magnet English  Outbreak_The_New_Nightmare_Update_v5_11_0-CODEX in Games, by mercs213 16 minutes 1.6 GB 12442 21565
Download Magnet English  Rampage_2018_720p_WEB_HEVC_x265-RMTeam in Movies, by bone111 26 minutes 633.5 MB 81815 68421
Download Magnet English  I_Feel_Pretty_(2018)_HDCAM_400MB_Ganool in Movies, by bone111 26 minutes 401.7 MB 27280 8941
Download Magnet English  The_Force_S03E09_Dont_Call_Me_Darling_XviD-AFG[TGx] in TV, by mazemaze16 31 minutes 653.3 MB 28628 46432




Recent Searches

Home - Browse Torrents - Upload Torrent - Recent Torrents - Login - Register - FAQ
BitCoin:coming soon
Can't load LimeTorrents
2006-2018 Limetorrents