LimeTorrent

Login   |   Register   |   Home
Browse Torrents
| Search Cloud | | | FAQ  
» » Doctor Who (2005) Season 3 S03 + Extras (1080p BluRay x265 HEVC 10bit AAC 5 1 Panda ) [QxR]

Download Doctor Who (2005) Season 3 S03 + Extras (1080p BluRay x265 HEVC 10bit AAC 5 1 Panda ) [QxR] limetorrent


Download torrent: Download Magnet Doctor Who (2005) Season 3 S03 + Extras (1080p BluRay x265 HEVC 10bit AAC 5 1 Panda ) [QxR]
Info hash EE522BB9017FE335D35BAE682B594F994CD3151A
Torrent ID13813489
Comments: Sort Read Comments
Category: TV
Health:
 Seeders: 15 |  Leechers: 4 |  Completed: 143
Torrent language: English English
Total Size: 25.9 GB
Uploader: QxR Trusted Uploader Site Friend Superman Sun
Torrent added: 13-06-2018, 11:20:04
Views: 38


Extratorrent Download Torrent Today Added Torrents - …
https://extratorrent.unblocked.lat/today







Media Information

Code:

General
Format : Matroska
Format version : Version 4 / Version 2
File size : 1.42 GiB
Duration : 46 min 40 s
Overall bit rate : 4 363 kb/s
Movie name : Doctor Who (2005 - S03E01 - Smith and Jones
Encoded date : UTC 2018-06-10 09:25:35
Writing application : mkvmerge v19.0.0 ('Brave Captain') 64-bit
Writing library : libebml v1.3.5 + libmatroska v1.4.8
Cover : Yes
Attachments : cover.jpg
Writing frontend : StaxRip v1.7.0.6

Video
ID : 1
Format : HEVC
Format/Info : High Efficiency Video Coding
Format profile : Main [email protected]@Main
Codec ID : V_MPEGH/ISO/HEVC
Duration : 46 min 40 s
Bit rate : 3 738 kb/s
Width : 1 888 pixels
Height : 1 080 pixels
Display aspect ratio : 16:9
Frame rate mode : Constant
Frame rate : 23.976 (24000/1001) FPS
Color space : YUV
Chroma subsampling : 4:2:0
Bit depth : 10 bits
Bits/(Pixel*Frame) : 0.076
Stream size : 1.22 GiB (86%)
Writing library : x265 2.8+12-9cde2c278464:[Windows][MSVC 1900][64 bit] 10bit
Encoding settings : cpuid=1111039 / frame-threads=3 / numa-pools=8 / wpp / no-pmode / no-pme / no-psnr / no-ssim / log-level=2 / input-csp=1 / input-res=1888x1080 / interlace=0 / total-frames=67152 / level-idc=0 / high-tier=1 / uhd-bd=0 / ref=4 / no-allow-non-conformance / no-repeat-headers / annexb / no-aud / no-hrd / info / hash=0 / no-temporal-layers / open-gop / min-keyint=23 / keyint=250 / gop-lookahead=0 / bframes=8 / b-adapt=2 / b-pyramid / bframe-bias=0 / rc-lookahead=80 / lookahead-slices=0 / scenecut=40 / radl=0 / no-intra-refresh / ctu=64 / min-cu-size=8 / no-rect / no-amp / max-tu-size=32 / tu-inter-depth=1 / tu-intra-depth=1 / limit-tu=0 / rdoq-level=2 / dynamic-rd=0.00 / no-ssim-rd / signhide / no-tskip / nr-intra=0 / nr-inter=0 / no-constrained-intra / no-strong-intra-smoothing / max-merge=3 / limit-refs=3 / limit-modes / me=3 / subme=5 / merange=57 / temporal-mvp / weightp / no-weightb / no-analyze-src-pics / deblock=-3:-3 / no-sao / no-sao-non-deblock / rd=4 / no-early-skip / rskip / no-fast-intra / no-tskip-fast / no-cu-lossless / no-b-intra / no-splitrd-skip / rdpenalty=0 / psy-rd=2.00 / psy-rdoq=1.70 / no-rd-refine / no-lossless / cbqpoffs=0 / crqpoffs=0 / rc=crf / crf=21.5 / qcomp=0.60 / qpstep=4 / stats-write=0 / stats-read=0 / ipratio=1.40 / pbratio=1.30 / aq-mode=3 / aq-strength=1.00 / cutree / zone-count=0 / no-strict-cbr / qg-size=32 / no-rc-grain / qpmax=69 / qpmin=0 / no-const-vbv / sar=0 / overscan=0 / videoformat=5 / range=0 / colorprim=2 / transfer=2 / colormatrix=2 / chromaloc=0 / display-window=0 / max-cll=0,0 / min-luma=0 / max-luma=1023 / log2-max-poc-lsb=8 / vui-timing-info / vui-hrd-info / slices=1 / no-opt-qp-pps / no-opt-ref-list-length-pps / no-multi-pass-opt-rps / scenecut-bias=0.05 / no-opt-cu-delta-qp / no-aq-motion / no-hdr / no-hdr-opt / no-dhdr10-opt / no-idr-recovery-sei / analysis-reuse-level=5 / scale-factor=0 / refine-intra=0 / refine-inter=0 / refine-mv=0 / no-limit-sao / ctu-info=0 / no-lowpass-dct / refine-mv-type=0 / copy-pic=1 / max-ausize-factor=1.0 / no-dynamic-refine / no-single-sei
Default : Yes
Forced : No

Audio #1
ID : 2
Format : AAC
Format/Info : Advanced Audio Codec
Format profile : LC
Codec ID : A_AAC
Duration : 46 min 40 s
Bit rate : 480 kb/s
Channel(s) : 6 channels
Channel positions : Front: L C R, Side: L R, LFE
Sampling rate : 48.0 kHz
Frame rate : 46.875 FPS (1024 spf)
Compression mode : Lossy
Delay relative to video : 20 ms
Stream size : 160 MiB (11%)
Language : English
Default : Yes
Forced : No

Audio #2
ID : 3
Format : AAC
Format/Info : Advanced Audio Codec
Format profile : LC
Codec ID : A_AAC
Duration : 46 min 40 s
Bit rate : 130 kb/s
Channel(s) : 2 channels
Channel positions : Front: L R
Sampling rate : 48.0 kHz
Frame rate : 46.875 FPS (1024 spf)
Compression mode : Lossy
Delay relative to video : 20 ms
Stream size : 43.3 MiB (3%)
Title : Commentary with Russell T. Davies & David Tennant
Language : English
Default : No
Forced : No

Subtitle
ID : 4
Format : PGS
Muxing mode : zlib
Codec ID : S_HDMV/PGS
Codec ID/Info : Picture based subtitle format used on BDs/HD-DVDs
Duration : 45 min 26 s
Bit rate : 43.5 kb/s
Count of elements : 1298
Stream size : 14.1 MiB (1%)
Language : English
Default : No
Forced : No

Menu
00:00:00.000 : en:Chapter 01
00:04:04.452 : en:Chapter 02
00:08:00.938 : en:Chapter 03
00:13:17.254 : en:Chapter 04
00:16:28.946 : en:Chapter 05
00:20:15.005 : en:Chapter 06
00:25:09.049 : en:Chapter 07
00:29:23.887 : en:Chapter 08
00:34:04.876 : en:Chapter 09
00:37:55.773 : en:Chapter 10
00:42:43.269 : en:Chapter 11
00:44:55.484 : en:Chapter 12
00:45:29.601 : en:Chapter 13

Source Information

Code:

Release:
Doctor.Who.2005.S03.1080p.BluRay.DTS-HD.MA5.1.H.264-BluRG


Note From QxR:

Quote:

Whilst we are happy for our releases to be re-posted on a platform we aren't on, please do so in an 'as-is' format. We ask that you do not create a new torrent, include all descriptions you see above including the QxR logo, tags, notes and screenshots. If you'd like to become a permanent poster on a website we don't post to, feel free to get in contact with a QxR member.






 

Related Torrents
Browse Movies Torrents Related Torrents added recently in our database RSS  
Added  Size  Sort S  Sort L  Sort Health
Download Magnet English  Ready_Player_One_(2018)_720p_WEBRip_x264_AAC_MSubs_-_Downloa___ in Movies, by downloadhub 8 minutes 1.0 GB 32938 81045
Download Magnet Dutch  Departures_2008_SUBBED_1080p_BluRay_x264-CiNEFiLE in Movies, by hotpena 18 minutes 8.8 GB 50702 92414
Download Magnet English  Finding_Your_Feet_(2017)_720p_WEB-DL_x264_900MB_-_MkvHub in Movies, by MkvHub 18 minutes 894.3 MB 36074 46854
Download Magnet English  Ready_Player_One_2018_1080p_WEB-DL_5_1_x265-HETeam in Movies, by bone111 28 minutes 1.8 GB 1187 32530
Download Magnet English  Life_of_the_Party_(2018)_720p_WEB-DL_x264_850MB_-_MkvHub in Movies, by MkvHub 28 minutes 840.5 MB 63831 64148
Download Magnet English  Bunkd_S03E01_XviD-AFG[TGx] in TV, by mazemaze16 28 minutes 416.4 MB 15199 73437
Download Magnet English  Phoning_Home_MULTi7_Update_v20180618-PLAZA in Games, by mercs213 28 minutes 94.6 MB 55519 59293
Download Magnet English  Outbreak_The_New_Nightmare_Update_v5_11_0-CODEX in Games, by mercs213 28 minutes 1.6 GB 91712 42275
Download Magnet English  Rampage_2018_720p_WEB_HEVC_x265-RMTeam in Movies, by bone111 38 minutes 633.5 MB 48912 97500
Download Magnet English  I_Feel_Pretty_(2018)_HDCAM_400MB_Ganool in Movies, by bone111 38 minutes 401.7 MB 86497 29562




Recent Searches

Home - Browse Torrents - Upload Torrent - Recent Torrents - Login - Register - FAQ
BitCoin:coming soon
Can't load LimeTorrents
2006-2018 Limetorrents