LimeTorrent

Login   |   Register   |   Home
Browse Torrents
| Search Cloud | | | FAQ  
» » Our Girl S04E02 Nigeria Tour Episode 2 revittony

Download Our Girl S04E02 Nigeria Tour Episode 2 revittony limetorrent


Download torrent: Download Magnet Our Girl S04E02 Nigeria Tour Episode 2 revittony
Info hash 48889A03A353FBC4944B94A24CC6B9761C8D9535
Torrent ID13813426
Comments: Sort Read Comments
Category: TV
Health:
 Seeders: 6 |  Leechers: n/a |  Completed: 413
Torrent language: English English
Total Size: 651.6 MB
Uploader: revittony Trusted Uploader Site Friend Superman Sun
Torrent added: 13-06-2018, 09:15:03
Views: 27


Extratorrent Download Torrent



Format : MPEG-4
Format profile : Base Media
Codec ID : isom (isom/iso2/avc1/mp41)
Overall bit rate mode : Variable
Overall bit rate : 1 663 kb/s


Video
ID : 1
Format : AVC
Format/Info : Advanced Video Codec
Format profile : [email protected]
Format settings : CABAC / 4 Ref Frames
Format settings, CABAC : Yes
Format settings, RefFrames : 4 frames
Format settings, GOP : M=8, N=96
Codec ID : avc1
Codec ID/Info : Advanced Video Coding
Duration : 57 min 43 s
Bit rate : 1 564 kb/s
Width : 960 pixels
Height : 540 pixels
Display aspect ratio : 16:9
Frame rate mode : Constant
Frame rate : 25.000 FPS
Color space : YUV
Chroma subsampling : 4:2:0
Bit depth : 8 bits
Scan type : Progressive
Bits/(Pixel*Frame) : 0.121
Stream size : 646 MiB (94%)
Color range : Limited
Color primaries : BT.709
Transfer characteristics : BT.709
Matrix coefficients : BT.709

Audio
ID : 2
Format : AAC
Format/Info : Advanced Audio Codec
Format profile : HE-AAC / LC
Format settings : Implicit
Codec ID : mp4a-40-2
Duration : 57 min 43 s
Bit rate mode : Variable
Bit rate : 96.0 kb/s
Maximum bit rate : 101 kb/s
Channel(s) : 2 channels
Channel positions : Front: L R
Sampling rate : 48.0 kHz / 24.0 kHz
Frame rate : 23.438 FPS (1024 SPF)
Compression mode : Lossy
Stream size : 39.1 MiB (6%)
Language : English
Default : Yes
Alternate group : 1





 

Related Torrents




Recent Searches

Home - Browse Torrents - Upload Torrent - Recent Torrents - Login - Register - FAQ
BitCoin:coming soon
Can't load LimeTorrents
2006-2018 Limetorrents