LimeTorrent

Login   |   Register   |   Home
Browse Torrents
| Search Cloud | | | FAQ  
» » Shinedown - 2018 - Attention Attention

Download Shinedown - 2018 - Attention Attention limetorrent


Download torrent: Download Magnet Shinedown - 2018 - Attention Attention
Info hash D9FCE9140B90E473CE4304DCE911D9F8996678B3
Torrent ID13812491
Comments: Sort Read Comments
Category: Music
Health:
 Seeders: 2 |  Leechers: n/a |  Completed: 14
Torrent language: English English
Total Size: 393.8 MB
Uploader: KATJohnRambo Trusted Uploader Site Friend Superman Sun
Torrent added: 11-06-2018, 10:00:04
Views: 45


Extratorrent Download Torrent Official Website of Shinedown for …
www.shinedown.com
Shinedown - Attention Attention …
freealbums.org/5477-shinedown-attention-attention-2018.html
Shinedown Warn of the 'Devil' in New …
loudwire.com/shinedown-devil-attention-attention-song
Attention Attention Ultimate CD …
store.shinedown.com/attention-attention-ultimate-cd-bundle.html
Shinedown's 'Attention! Attention!' …
loudwire.com/shinedown-brent-smith-attention-attention...
Attention Attention (Digital Album) …
store.shinedown.com/attention-attention-cd-1.html
Shinedown Lyrics - ATTENTION …
www.azlyrics.com › S › Shinedown Lyrics
Shinedown - Wikipedia
https://en.wikipedia.org/wiki/Shinedown
“It's about to get heavy”: Shinedown …
www.98online.com/2018/...to-get-heavy-shinedown...attention-attention
Shinedown’s new album “Attention …
alternativerevolution.net/shinedowns-new-album-attention-attention...

-------------------------------------------------------------------------------- Analyzed: Shinedown / Attention Attention -------------------------------------------------------------------------------- DR         Peak         RMS     Duration Track -------------------------------------------------------------------------------- DR22      -8.05 dB   -35.36 dB      0:38 01-The Entrance DR10      -6.74 dB   -19.73 dB      3:24 02-Devil DR11      -6.76 dB   -20.66 dB      3:19 03-Black Soul DR11      -7.55 dB   -20.62 dB      3:46 04-Attention Attention DR11      -6.31 dB   -20.60 dB      3:48 05-Kill Your Conscience DR10      -7.58 dB   -19.82 dB      3:45 06-Pyro DR11      -7.19 dB   -21.26 dB      4:03 07-Monsters DR11      -7.21 dB   -19.91 dB      3:48 08-Darkside DR11      -7.31 dB   -20.96 dB      3:51 09-Creatures DR11      -6.72 dB   -19.28 dB      2:51 10-Evolve DR11      -7.29 dB   -22.12 dB      4:00 11-Get Up DR11      -8.09 dB   -22.98 dB      3:41 12-Special DR11      -6.15 dB   -20.80 dB      4:03 13-Human Radio DR11      -6.96 dB   -21.06 dB      4:22 14-Brilliant -------------------------------------------------------------------------------- Number of tracks:  14 Official DR value: DR12 Samplerate:        96000 Hz Channels:          2 Bits per sample:   24 Bitrate:           1075 kbps Codec:             FLAC ================================================================================


 

Related Torrents




Recent Searches

Home - Browse Torrents - Upload Torrent - Recent Torrents - Login - Register - FAQ
BitCoin:coming soon
Can't load LimeTorrents
2006-2018 Limetorrents