LimeTorrent

Login   |   Register   |   Home
Browse Torrents
| Search Cloud | | | FAQ  
» » [60mbAnime com] KochiKame The Movie 1 - English subtitles [x265]

Download [60mbAnime com] KochiKame The Movie 1 - English subtitles [x265] limetorrent


Download torrent: Download Magnet [60mbAnime com] KochiKame The Movie 1 - English subtitles [x265]
Info hash 85808344682C82ECD9088D53C9DBD1008813CB4F
Torrent ID13810561
Comments: Sort Read Comments
Category: Anime
Health:
 Seeders: 1 |  Leechers: n/a |  Completed: n/a
Torrent language: Japanese Japanese
Total Size: 702.4 MB
Uploader: 60mbAnime Trusted Uploader Site Friend Superman Sun
Torrent added: 08-06-2018, 06:00:03
Views: 47


Extratorrent Download Torrent Subtitles » Субтитры - English anime …
subs.com.ru/list.php?c=enganime
Subtitles » Субтитры - переводы к …
subs.com.ru
Episodes (English sub) - Crayon Shin …
https://www.shinchanenglish.com
D-Addicts - Subtitles Index
www.d-addicts.com › Board index › Subtitles Index
Download Anime Torrents | 1337x
https://1337x.to/cat/Anime/3
Frieza - Wikipedia
https://en.wikipedia.org/wiki/Freeza
Video Games / No Export For You - TV …
tvtropes.org/pmwiki/pmwiki.php/NoExportForYou/VideoGames
Where are these GTS? - Anime and …
https://www.acgts.gdn/where/index.html
Bizarro Episode - TV Tropes
tvtropes.org/pmwiki/pmwiki.php/Main/BizarroEpisode



General
Unique ID : 106725027796090600415339034618160480087 (0x504A7E20976520C6AEEA83C13A1FFF57)
Complete name : [60mbAnime.com] KochiKame The Movie 1 - English subtitles.mkv
Format : Matroska
Format version : Version 2
File size : 702 MiB
Duration : 1 h 34 min
Overall bit rate : 1 043 kb/s
Encoded date : UTC 2018-06-07 05:30:07
Writing application : mkvmerge v22.0.0 ('At The End Of The World') 64-bit
Writing library : libebml v1.3.5 + libmatroska v1.4.8

Video
ID : 1
Format : HEVC
Format/Info : High Efficiency Video Coding
Format profile : [email protected]@Main
Codec ID : V_MPEGH/ISO/HEVC
Duration : 1 h 34 min
Bit rate : 862 kb/s
Width : 716 pixels
Height : 464 pixels
Display aspect ratio : 1.85:1
Frame rate mode : Constant
Frame rate : 23.976 (24000/1001) FPS
Color space : YUV
Chroma subsampling : 4:2:0
Bit depth : 8 bits
Bits/(Pixel*Frame) : 0.108
Stream size : 580 MiB (83%)
Writing library : x265 2.7+1-2aa737a99f51:[Windows][GCC 7.3.0][64 bit] 8bit+10bit+12bit
Encoding settings : cpuid=1173503 / frame-threads=3 / numa-pools=8 / wpp / no-pmode / no-pme / no-psnr / no-ssim / log-level=2 / input-csp=1 / input-res=716x464 / interlace=0 / total-frames=135398 / level-idc=0 / high-tier=1 / uhd-bd=0 / ref=3 / no-allow-non-conformance / no-repeat-headers / annexb / no-aud / no-hrd / info / hash=0 / no-temporal-layers / open-gop / min-keyint=23 / keyint=250 / gop-lookahead=0 / bframes=4 / b-adapt=2 / b-pyramid / bframe-bias=0 / rc-lookahead=20 / lookahead-slices=0 / scenecut=40 / radl=0 / no-intra-refresh / ctu=64 / min-cu-size=8 / no-rect / no-amp / max-tu-size=32 / tu-inter-depth=1 / tu-intra-depth=1 / limit-tu=0 / rdoq-level=0 / dynamic-rd=0.00 / no-ssim-rd / signhide / no-tskip / nr-intra=0 / nr-inter=0 / no-constrained-intra / strong-intra-smoothing / max-merge=2 / limit-refs=3 / no-limit-modes / me=1 / subme=2 / merange=57 / temporal-mvp / weightp / no-weightb / no-analyze-src-pics / deblock=0:0 / sao / no-sao-non-deblock / rd=3 / no-early-skip / rskip / no-fast-intra / no-tskip-fast / no-cu-lossless / no-b-intra / no-splitrd-skip / rdpenalty=0 / psy-rd=2.00 / psy-rdoq=0.00 / no-rd-refine / no-lossless / cbqpoffs=0 / crqpoffs=0 / rc=abr / bitrate=861 / qcomp=0.60 / qpstep=4 / stats-write=0 / stats-read=2 / cplxblur=20.0 / qblur=0.5 / ipratio=1.40 / pbratio=1.30 / aq-mode=1 / aq-strength=1.00 / cutree / zone-count=0 / no-strict-cbr / qg-size=32 / no-rc-grain / qpmax=69 / qpmin=0 / no-const-vbv / sar=255 / sar-width / : / sar-height=212:179 / overscan=0 / videoformat=5 / range=0 / colorprim=2 / transfer=2 / colormatrix=2 / chromaloc=0 / display-window=0 / max-cll=0,0 / min-luma=0 / max-luma=255 / log2-max-poc-lsb=8 / vui-timing-info / vui-hrd-info / slices=1 / no-opt-qp-pps / no-opt-ref-list-length-pps / no-multi-pass-opt-rps / scenecut-bias=0.05 / no-opt-cu-delta-qp / no-aq-motion / no-hdr / no-hdr-opt / no-dhdr10-opt / analysis-reuse-level=5 / scale-factor=0 / refine-intra=0 / refine-inter=0 / refine-mv=0 / no-limit-sao / ctu-info=0 / no-lowpass-dct / refine-mv-type=0 / copy-pic=1
Default : Yes
Forced : No

Audio
ID : 2
Format : AAC
Format/Info : Advanced Audio Codec
Format profile : LC
Codec ID : A_AAC-2
Duration : 1 h 34 min
Bit rate : 173 kb/s
Channel(s) : 2 channels
Channel positions : Front: L R
Sampling rate : 48.0 kHz
Frame rate : 46.875 FPS (1024 SPF)
Compression mode : Lossy
Delay relative to video : 9 ms
Stream size : 116 MiB (17%)
Title : Stereo
Language : Japanese
Default : Yes
Forced : No

Text #1
ID : 3
Format : ASS
Codec ID : S_TEXT/ASS
Codec ID/Info : Advanced Sub Station Alpha
Duration : 1 h 33 min
Bit rate : 85 b/s
Count of elements : 1159
Compression mode : Lossless
Stream size : 58.3 KiB (0%)
Language : English
Default : Yes
Forced : No

Text #2
ID : 4
Format : VobSub
Muxing mode : zlib
Codec ID : S_VOBSUB
Codec ID/Info : Picture based subtitle format used on DVDs
Duration : 1 h 34 min
Bit rate : 4 148 b/s
Count of elements : 1066
Stream size : 2.79 MiB (0%)
Language : English
Default : No
Forced : No

Text #3
ID : 5
Format : VobSub
Muxing mode : zlib
Codec ID : S_VOBSUB
Codec ID/Info : Picture based subtitle format used on DVDs
Duration : 1 h 33 min
Bit rate : 6 696 b/s
Count of elements : 1310
Stream size : 4.46 MiB (1%)
Language : Japanese
Default : No
Forced : No





 

Related Torrents
Browse Movies Torrents Related Torrents added recently in our database RSS  
Added  Size  Sort S  Sort L  Sort Health
Download Magnet English  Nashville_2012_S06E11_720p_HDTV_x264-LucidTV[ettv] in TV, by EtHD 4 minutes 754.6 MB 94124 79553
Download Magnet English  Nashville_2012_S06E11_HDTV_x264-LucidTV[ettv] in TV, by ETTV 4 minutes 213.1 MB 69934 51522
Download Magnet English  Nashville_2012_S06E11_HDTV_x264-LucidTV[TGx] in TV, by mazemaze16 4 minutes 213.1 MB 52631 72931
Download Magnet English  Nashville_2012_S06E11_720p_HDTV_x264-LucidTV[eztv] in TV, by EZTVag 4 minutes 754.6 MB 35925 77442
Download Magnet English  Nashville_2012_S06E11_720p_HDTV_x264-LucidTV[TGx] in TV, by mazemaze16 4 minutes 754.6 MB 98260 22407
Download Magnet English  Nashville_2012_S06E11_HDTV_x264-LucidTV[eztv] in TV, by EZTVag 4 minutes 213.1 MB 66363 65997
Download Magnet English  [email protected] in Movies, by Zist313 9 minutes 1.1 GB 49223 99480
Download Magnet English  Jurassic_World_2_(2018)_720p_-_New_HDTC_-_Line_Auds_[Hindi_+___ in Movies, by MovCr 9 minutes 1.0 GB 44082 59703
Download Magnet Hindi  Jurassic_World_2_(2018)_720p_New_HDTC_-_Line_Auds_[Telugu_+____ in Movies, by tamilohd 9 minutes 1.0 GB 95444 6250
Download Magnet English  Beirut_2018_1080p_BluRay_x264_DTS-HD_MA_5_1-HDChina[EtHD] in Movies, by EtHD 9 minutes 14.3 GB 31361 19969




Recent Searches

Home - Browse Torrents - Upload Torrent - Recent Torrents - Login - Register - FAQ
BitCoin:coming soon
Can't load LimeTorrents
2006-2018 Limetorrents